+ mac-008.com
|- Recent Posts


Recent Posts

Pages: 1 2 3 4 ... 10
1
in postet she saying chutiya?
2
Rules: No One Delete Others File Except File Owner Or Me..... Max File Storage Time 8 Hrs ..... Porn Allowed ENJOY..If Anyone Broke This Rules U Know What Happened..........DONT ADD BAD HEALTH TORRENT...





3


General

Format                                   : Matroska
Format version                           : Version 4 / Version 2
File size                                : 913 MiB
Duration                                 : 23 min 34 s
Overall bit rate                         : 5 416 kb/s
Encoded date                             : UTC 2018-02-18 14:42:21
Writing application                      : mkvmerge v18.0.0 ('Apricity') 32-bit
Writing library                          : libebml v1.3.5 + libmatroska v1.4.8

Video
ID                                       : 1
Format                                   : AVC
Format/Info                              : Advanced Video Codec
Format profile                           : [email protected]
Format settings                          : CABAC / 2 Ref Frames
Format settings, CABAC                   : Yes
Format settings, RefFrames               : 2 frames
Format settings, GOP                     : M=1, N=12
Codec ID                                 : V_MPEG4/ISO/AVC
Duration                                 : 23 min 32 s
Bit rate                                 : 5 038 kb/s
Width                                    : 1 920 pixels
Height                                   : 1 080 pixels
Display aspect ratio                     : 16:9
Frame rate mode                          : Constant
Frame rate                               : 23.976 (24000/1001) FPS
Color space                              : YUV
Chroma subsampling                       : 4:2:0
Bit depth                                : 8 bits
Scan type                                : Progressive
Bits/(Pixel*Frame)                       : 0.101
Stream size                              : 848 MiB (93%)
Default                                  : Yes
Forced                                   : No

Audio
ID                                       : 2
Format                                   : AC-3
Format/Info                              : Audio Coding 3
Codec ID                                 : A_AC3
Duration                                 : 23 min 34 s
Bit rate mode                            : Constant
Bit rate                                 : 384 kb/s
Channel(s)                               : 6 channels
Channel positions                        : Front: L C R, Side: L R, LFE
Sampling rate                            : 48.0 kHz
Frame rate                               : 31.250 FPS (1536 SPF)
Bit depth                                : 16 bits
Compression mode                         : Lossy
Stream size                              : 64.8 MiB (7%)
Language                                 : Hindi
Service kind                             : Complete Main
Default                                  : Yes
Forced                                   : No

























4


General

Format                                   : Matroska
Format version                           : Version 4 / Version 2
File size                                : 838 MiB
Duration                                 : 23 min 34 s


Video
ID                                       : 1
Format                                   : AVC
Format/Info                              : Advanced Video Codec
Duration                                 : 23 min 32 s
Bit rate                                 : 4 591 kb/s
Width                                    : 1 920 pixels
Height                                   : 1 080 pixels
Display aspect ratio                     : 16:9
Frame rate mode                          : Constant
Frame rate                               : 23.976 (24000/1001) FPS
Color space                              : YUV
Chroma subsampling                       : 4:2:0
Bit depth                                : 8 bits
Scan type                                : Progressive
Bits/(Pixel*Frame)                       : 0.092
Stream size                              : 773 MiB (92%)
Default                                  : Yes
Forced                                   : No

Audio
ID                                       : 2
Format                                   : AC-3
Format/Info                              : Audio Coding 3
Codec ID                                 : A_AC3
Duration                                 : 23 min 34 s
Bit rate mode                            : Constant
Bit rate                                 : 384 kb/s
Channel(s)                               : 6 channels
Channel positions                        : Front: L C R, Side: L R, LFE
Sampling rate                            : 48.0 kHz
Frame rate                               : 31.250 FPS (1536 SPF)
Bit depth                                : 16 bits
Compression mode                         : Lossy
Stream size                              : 64.8 MiB (8%)
Language                                 : Hindi
Service kind                             : Complete Main
Default                                  : Yes
Forced                                   : No












5


General

Format                                   : Matroska
Format version                           : Version 4 / Version 2
File size                                : 735 MiB
Duration                                 : 23 min 34 s
Overall bit rate                         : 4 361 kb/s


Video
ID                                       : 1
Format                                   : AVC
Format/Info                              : Advanced Video Codec
Duration                                 : 23 min 32 s
Bit rate                                 : 3 982 kb/s
Width                                    : 1 920 pixels
Height                                   : 1 080 pixels
Display aspect ratio                     : 16:9
Frame rate mode                          : Constant
Frame rate                               : 23.976 (24000/1001) FPS
Color space                              : YUV
Chroma subsampling                       : 4:2:0
Bit depth                                : 8 bits
Scan type                                : Progressive
Bits/(Pixel*Frame)                       : 0.080
Stream size                              : 670 MiB (91%)
Default                                  : Yes
Forced                                   : No

Audio
ID                                       : 2
Format                                   : AC-3
Format/Info                              : Audio Coding 3
Codec ID                                 : A_AC3
Duration                                 : 23 min 34 s
Bit rate mode                            : Constant
Bit rate                                 : 384 kb/s
Channel(s)                               : 6 channels
Channel positions                        : Front: L C R, Side: L R, LFE
Sampling rate                            : 48.0 kHz
Frame rate                               : 31.250 FPS (1536 SPF)
Bit depth                                : 16 bits
Compression mode                         : Lossy
Stream size                              : 64.8 MiB (9%)
Language                                 : Hindi
Service kind                             : Complete Main
Default                                  : Yes
Forced                                   : No




















6



General

Format                                   : Matroska
Format version                           : Version 4 / Version 2
File size                                : 876 MiB
Duration                                 : 23 min 34 s
Overall bit rate                         : 5 194 kb/s


Video
ID                                       : 1
Format                                   : AVC
Format/Info                              : Advanced Video Codec
Duration                                 : 23 min 32 s
Bit rate                                 : 4 816 kb/s
Width                                    : 1 920 pixels
Height                                   : 1 080 pixels
Display aspect ratio                     : 16:9
Frame rate mode                          : Constant
Frame rate                               : 23.976 (24000/1001) FPS
Color space                              : YUV
Chroma subsampling                       : 4:2:0
Bit depth                                : 8 bits
Scan type                                : Progressive
Bits/(Pixel*Frame)                       : 0.097
Stream size                              : 811 MiB (93%)
Default                                  : Yes
Forced                                   : No

Audio
ID                                       : 2
Format                                   : AC-3
Format/Info                              : Audio Coding 3
Codec ID                                 : A_AC3
Duration                                 : 23 min 34 s
Bit rate mode                            : Constant
Bit rate                                 : 384 kb/s
Channel(s)                               : 6 channels
Channel positions                        : Front: L C R, Side: L R, LFE
Sampling rate                            : 48.0 kHz
Frame rate                               : 31.250 FPS (1536 SPF)
Bit depth                                : 16 bits
Compression mode                         : Lossy
Stream size                              : 64.8 MiB (7%)
Language                                 : Hindi
Service kind                             : Complete Main
Default                                  : Yes
Forced                                   : No


























7
when i try to play any video it give me error BYA-403-007

screen shot please. because Hulu will stream in some country only and if you are using proxy or vpn then it will work with some vpn only.
8
Thora intezar karna hoga bhai.
Mein vi wait kaar rha hun.
:india1:
9
when i try to play any video it give me error BYA-403-007
10
ABCD 2 (2015) Hindi 1080p mHD Blu-ray x264 AAC 5.1 ESub [DDR]


 :info:
Source : [email protected] DDR
Format : MKV
File size : 3.68 GiB
Duration : 2h 34mn
Overall bit rate : 3 408 Kbps

Video
Format : AVC
Format profile : [email protected]
Nominal bit rate : 3 188 Kbps
Width : 1 920 pixels
Height : 816 pixels
Display aspect ratio : 2.35:1
Frame rate mode : Constant
Frame rate : 24.000 fps
Bit depth : 8 bits
Scan type : Progressive

Audio
Format : AAC
Format profile : LC @ 192 Kbps
Channel(s) : 6 channels
Channel positions : Front: L C R, Side: L R, LFE
Sampling rate : 48.0 KHz
Compression mode : Lossy

Language : Hindi

Chapters : YES

 :ss:









 :download:





Pages: 1 2 3 4 ... 10



Back to top